<?xml version="1.0" standalone="no"?>
<!DOCTYPE svg PUBLIC "-//W3C//DTD SVG 1.1//EN" "http://www.w3.org/Graphics/SVG/1.1/DTD/svg11.dtd" >
<svg xmlns="http://www.w3.org/2000/svg" xmlns:xlink="http://www.w3.org/1999/xlink" version="1.1">
<metadata></metadata>
<defs>
<font id="gilroyheavy" horiz-adv-x="1241" >
<font-face units-per-em="2048" ascent="1638" descent="-410" />
<missing-glyph horiz-adv-x="409" />
<glyph unicode="&#xfb01;" horiz-adv-x="1177" d="M20 664v360h119q0 217 135 329.5t402 112.5q154 0 276 -32v-312q-144 21 -245 21q-189 0 -189 -119h578v-1024h-379v664h-199v-664h-379v664h-119z" />
<glyph unicode="&#xfb02;" horiz-adv-x="1177" d="M20 664v360h119q0 217 135 329.5t402 112.5q227 0 420 -32v-1434h-379v1151q-16 2 -51 2q-66 0 -107 -33t-41 -96h117v-360h-117v-664h-379v664h-119z" />
<glyph horiz-adv-x="0" />
<glyph horiz-adv-x="682" />
<glyph unicode=" "  horiz-adv-x="409" />
<glyph unicode="&#x09;" horiz-adv-x="409" />
<glyph unicode="&#xa0;" horiz-adv-x="409" />
<glyph unicode="!" horiz-adv-x="634" d="M82 205q0 98 68.5 166.5t166.5 68.5t167 -68.5t69 -166.5t-69 -167t-167 -69t-166.5 69t-68.5 167zM82 1024v410h471v-410l-72 -492h-327z" />
<glyph unicode="&#x22;" horiz-adv-x="1003" d="M102 1434h349l-41 -574h-267zM553 1434h348l-41 -574h-266z" />
<glyph unicode="#" horiz-adv-x="1316" d="M41 389l43 266h197l20 123h-197l43 266h199l47 287h295l-47 -287h147l48 287h294l-47 -287h193l-43 -266h-195l-20 -123h196l-43 -266h-198l-47 -287h-295l47 287h-148l-47 -287h-295l48 287h-195zM575 655h148l20 123h-147z" />
<glyph unicode="$" horiz-adv-x="1157" d="M31 307l360 195q31 -126 131 -154v195l-8 2q-89 31 -150 57.5t-121.5 66t-96.5 84.5t-58 108.5t-22 142.5q0 196 126 319t330 141v174h144v-176q307 -34 434 -309l-350 -188q-29 90 -84 114v-202q2 -1 6 -2.5t6 -2.5q165 -61 220 -89q153 -78 201 -200q27 -68 27 -155 q0 -199 -124.5 -318.5t-335.5 -138.5v-176h-144v174q-187 12 -315 101t-176 237zM455 1006q0 -27 15.5 -43.5t51.5 -32.5v157q-67 -19 -67 -81zM666 346q71 14 71 74q0 25 -17 41.5t-54 30.5v-146z" />
<glyph unicode="%" horiz-adv-x="1777" d="M61 1077q0 163 115 276t285 113q168 0 281.5 -113.5t113.5 -275.5t-113.5 -275.5t-281.5 -113.5q-170 0 -285 113t-115 276zM322 227l962 1020l150 -86l-965 -1018zM360 1077q0 -42 28.5 -72t70.5 -30q43 0 71.5 30.5t28.5 71.5q0 43 -28 73t-72 30q-42 0 -70.5 -30 t-28.5 -73zM922 356q0 163 114.5 276t284.5 113q168 0 281.5 -113.5t113.5 -275.5t-113.5 -275.5t-281.5 -113.5q-170 0 -284.5 113t-114.5 276zM1221 356q0 -42 28 -72t70 -30q43 0 71.5 30.5t28.5 71.5q0 43 -28 73t-72 30q-42 0 -70 -30t-28 -73z" />
<glyph unicode="&#x26;" horiz-adv-x="1398" d="M61 414q0 246 232 387q-74 112 -74 235q0 187 136.5 308.5t346.5 121.5q180 0 310 -77.5t213 -253.5l-342 -199q-30 78 -68 113.5t-88 35.5q-44 0 -66 -23.5t-22 -60.5q0 -8 1.5 -16t5 -17t7 -15.5t11 -17.5t12 -17.5t16 -19.5t17.5 -20t21 -24t22 -25l215 -243 q41 87 61 190l320 -186q-47 -150 -136 -281l166 -188l-309 -178l-113 125q-172 -101 -374 -101q-123 0 -223 35.5t-164.5 97t-99 142.5t-34.5 172zM473 434q0 -54 40.5 -90.5t117.5 -36.5q43 0 92 17l-201 219q-49 -46 -49 -109z" />
<glyph unicode="'" horiz-adv-x="552" d="M102 1434h349l-41 -574h-267z" />
<glyph unicode="(" horiz-adv-x="686" d="M82 717q0 469 225 921h379q-225 -452 -225 -921q0 -470 225 -922h-379q-225 452 -225 922z" />
<glyph unicode=")" horiz-adv-x="686" d="M0 -205q225 452 225 922q0 469 -225 921h379q225 -452 225 -921q0 -470 -225 -922h-379z" />
<glyph unicode="*" horiz-adv-x="839" d="M82 1018v213l188 -21l-118 146l180 110l88 -161l88 161l180 -110l-119 -146l189 21v-213l-189 20l119 -145l-180 -111l-88 162l-88 -162l-180 111l118 145z" />
<glyph unicode="+" horiz-adv-x="1146" d="M61 532v369h328v328h369v-328h327v-369h-327v-327h-369v327h-328z" />
<glyph unicode="," horiz-adv-x="645" d="M82 -287l61 686h430l-184 -686h-307z" />
<glyph unicode="-" horiz-adv-x="1024" d="M102 444v357h820v-357h-820z" />
<glyph unicode="." horiz-adv-x="614" d="M72 205q0 98 68.5 166.5t166.5 68.5t167 -68.5t69 -166.5t-69 -167t-167 -69t-166.5 69t-68.5 167z" />
<glyph unicode="/" horiz-adv-x="1064" d="M41 -205l819 1843h164l-819 -1843h-164z" />
<glyph unicode="0" horiz-adv-x="1290" d="M41 717q0 224 68.5 392t206 262.5t329.5 94.5t329.5 -94.5t206 -262.5t68.5 -392t-68.5 -392t-206 -263t-329.5 -95t-329.5 95t-206 263t-68.5 392zM451 717q0 -180 48 -266t146 -86q99 0 147 86.5t48 265.5t-48 265.5t-147 86.5q-98 0 -146 -86t-48 -266z" />
<glyph unicode="1" horiz-adv-x="874" d="M0 1288l403 146h349v-1434h-410v1006l-248 -60z" />
<glyph unicode="2" horiz-adv-x="1118" d="M10 1120q71 171 211.5 258.5t313.5 87.5q100 0 191 -29t163 -84t115 -142t43 -195q0 -69 -16.5 -129t-53.5 -119t-70.5 -101t-93.5 -108l-145 -162h409v-397h-1036v299l467 506q13 14 36 38.5t32.5 34.5t24.5 28t20.5 29t10.5 25t5 27q0 35 -24.5 58.5t-71.5 23.5 q-114 0 -170 -145z" />
<glyph unicode="3" horiz-adv-x="1116" d="M10 307l361 207q43 -149 172 -149q56 0 89.5 28t33.5 78q0 102 -123 102h-88l-160 238l192 225h-432v398h942v-316l-227 -270q139 -40 222 -142t83 -255q0 -121 -42.5 -215t-116.5 -152t-168.5 -87.5t-204.5 -29.5q-189 0 -330.5 86.5t-202.5 253.5z" />
<glyph unicode="4" horiz-adv-x="1177" d="M20 209v369l396 856h465l-402 -856h144v200h401v-200h143v-369h-143v-209h-401v209h-603z" />
<glyph unicode="5" horiz-adv-x="1126" d="M10 307l361 207q21 -74 66 -111.5t126 -37.5q56 0 89.5 26.5t33.5 77.5q0 100 -123 100h-471l60 865h862v-398h-488l-8 -104h86q102 0 189.5 -29t156 -85t107.5 -146t39 -205q0 -122 -42.5 -219t-116.5 -157.5t-169.5 -92t-204.5 -31.5q-203 0 -347 86t-206 254z" />
<glyph unicode="6" horiz-adv-x="1146" d="M20 473q0 160 78 279l426 682h459l-293 -463q200 -32 318 -167t118 -331q0 -225 -151.5 -365.5t-401.5 -140.5q-251 0 -402 140.5t-151 365.5zM430 473q0 -70 38 -104.5t105 -34.5t105.5 34.5t38.5 104.5t-38.5 104.5t-105.5 34.5t-105 -34.5t-38 -104.5z" />
<glyph unicode="7" horiz-adv-x="1003" d="M-20 1036v398h1003v-336l-426 -1098h-451l402 1036h-528z" />
<glyph unicode="8" horiz-adv-x="1155" d="M31 403q0 109 49.5 199t144.5 148q-145 110 -145 286q0 198 139.5 312t358.5 114t358 -114t139 -312q0 -176 -145 -286q95 -58 144.5 -148t49.5 -199q0 -200 -141 -316t-405 -116t-405.5 116t-141.5 316zM440 461q0 -57 36.5 -89t101.5 -32t101 32t36 89t-36 89t-101 32 t-101.5 -32t-36.5 -89zM449 997q0 -104 129 -104q58 0 93.5 26.5t35.5 77.5t-35.5 78t-93.5 27q-129 0 -129 -105z" />
<glyph unicode="9" horiz-adv-x="1146" d="M20 961q0 225 151.5 365t401.5 140q251 0 402 -140t151 -365q0 -161 -77 -279l-426 -682h-459l293 463q-201 32 -319 167.5t-118 330.5zM430 961q0 -70 38 -105t105 -35t105.5 35t38.5 105t-38.5 104.5t-105.5 34.5t-105 -34.5t-38 -104.5z" />
<glyph unicode=":" horiz-adv-x="614" d="M72 205q0 98 68.5 166.5t166.5 68.5t167 -68.5t69 -166.5t-69 -167t-167 -69t-166.5 69t-68.5 167zM72 819q0 98 68.5 167t166.5 69t167 -69t69 -167t-69 -166.5t-167 -68.5t-166.5 68.5t-68.5 166.5z" />
<glyph unicode=";" horiz-adv-x="655" d="M82 -287l61 686h430l-184 -686h-307zM113 819q0 98 68.5 167t166.5 69t167 -69t69 -167t-69 -166.5t-167 -68.5t-166.5 68.5t-68.5 166.5z" />
<glyph unicode="&#x3c;" horiz-adv-x="1044" d="M61 543v348l922 399v-397l-532 -176l532 -176v-398z" />
<glyph unicode="=" horiz-adv-x="1024" d="M61 297v369h902v-369h-902zM61 768v369h902v-369h-902z" />
<glyph unicode="&#x3e;" horiz-adv-x="1044" d="M61 143v398l533 176l-533 176v397l922 -399v-348z" />
<glyph unicode="?" horiz-adv-x="1089" d="M20 1120q49 118 134.5 197.5t184.5 114t212 34.5q207 0 342 -109.5t135 -293.5q0 -73 -24 -137.5t-59.5 -107.5t-77 -84t-77 -71t-59.5 -64.5t-24 -66.5h-369q0 72 29 134.5t70 105.5t82 80t70 74.5t29 72.5q0 34 -22.5 54t-60.5 20q-101 0 -168 -149zM287 205 q0 98 68.5 166.5t166.5 68.5t167 -68.5t69 -166.5t-69 -167t-167 -69t-166.5 69t-68.5 167z" />
<glyph unicode="@" horiz-adv-x="1564" d="M51 512q0 152 57 288.5t155.5 236t237.5 158t296 58.5q133 0 249.5 -40.5t200.5 -109t145 -158t91 -190t30 -202.5q0 -469 -344 -469q-112 0 -189.5 48t-107.5 128q-73 -86 -192 -86q-142 0 -226.5 94.5t-84.5 243.5t84.5 243.5t226.5 94.5q105 0 176 -68v43h311v-483 q0 -62 20 -92.5t70 -30.5q32 0 58 17t48.5 54t35 104t12.5 159q0 168 -80.5 307t-221.5 219t-312 80q-134 0 -253 -50t-204.5 -136t-135.5 -206t-50 -255q0 -185 87.5 -333t243 -231t349.5 -83q168 0 292 41v-101q-121 -34 -292 -34q-165 0 -310 56t-249 153t-164 235 t-60 297zM680 512q0 -42 24.5 -69t63.5 -27t62.5 27t23.5 69q0 43 -23.5 69.5t-62.5 26.5q-40 0 -64 -26.5t-24 -69.5z" />
<glyph unicode="A" horiz-adv-x="1351" d="M-20 0l456 1434h479l457 -1434h-440l-49 184h-414l-49 -184h-440zM557 512h238l-119 440z" />
<glyph unicode="B" horiz-adv-x="1239" d="M102 0v1434h570q242 0 368.5 -104.5t126.5 -299.5q0 -186 -143 -291q184 -106 184 -317q0 -197 -128 -309.5t-371 -112.5h-607zM512 352h172q50 0 82.5 29t32.5 74q0 42 -25 68t-67 32l-195 2v-205zM512 889l158 2q39 5 63.5 28t24.5 66q0 48 -32.5 72t-78.5 24h-135 v-192z" />
<glyph unicode="C" horiz-adv-x="1470" d="M51 717q0 157 56.5 295.5t155 238.5t238.5 157.5t300 57.5q199 0 366.5 -94t262.5 -254l-357 -205q-35 69 -108.5 110.5t-163.5 41.5q-151 0 -245.5 -98.5t-94.5 -249.5t94.5 -249.5t245.5 -98.5q92 0 164.5 41t107.5 112l357 -205q-95 -161 -262.5 -255.5t-366.5 -94.5 q-160 0 -300 58t-238.5 158t-155 238.5t-56.5 295.5z" />
<glyph unicode="D" horiz-adv-x="1443" d="M102 0v1434h594q146 0 275.5 -55.5t221.5 -150.5t146 -228t54 -283t-54 -283t-146 -228t-221.5 -150.5t-275.5 -55.5h-594zM532 397h164q125 0 206 89t81 231t-81 230.5t-206 88.5h-164v-639z" />
<glyph unicode="E" horiz-adv-x="1105" d="M102 0v1434h932v-373h-522v-156h471v-368h-471v-160h532v-377h-942z" />
<glyph unicode="F" horiz-adv-x="1054" d="M102 0v1434h891v-398h-481v-186h471v-397h-471v-453h-410z" />
<glyph unicode="G" horiz-adv-x="1581" d="M51 715q0 210 96.5 382t267.5 270.5t382 98.5q201 0 367 -90t263 -243l-348 -199q-40 60 -110.5 95.5t-163.5 35.5q-154 0 -249 -98.5t-95 -253.5q0 -67 19.5 -129.5t60 -117t113 -87.5t167.5 -33q212 0 285 152h-305v348h729v-170q0 -201 -87.5 -362t-251.5 -254 t-378 -93q-222 0 -397 99t-270 269t-95 380z" />
<glyph unicode="H" horiz-adv-x="1372" d="M102 0v1434h410v-508h348v508h410v-1434h-410v528h-348v-528h-410z" />
<glyph unicode="I" horiz-adv-x="614" d="M102 0v1434h410v-1434h-410z" />
<glyph unicode="J" horiz-adv-x="1161" d="M41 262l344 203q27 -55 64.5 -77.5t95.5 -22.5q62 0 93.5 30.5t31.5 85.5v953h409v-963q0 -236 -139.5 -370t-392.5 -134q-188 0 -311 73.5t-195 221.5z" />
<glyph unicode="K" horiz-adv-x="1302" d="M102 0v1434h410v-574l336 574h455l-426 -697l446 -737h-455l-356 614v-614h-410z" />
<glyph unicode="L" horiz-adv-x="1003" d="M102 0v1434h410v-1037h471v-397h-881z" />
<glyph unicode="M" horiz-adv-x="1699" d="M102 0v1434h410l338 -584l338 584h409v-1434h-409v698l-320 -536h-37l-319 536v-698h-410z" />
<glyph unicode="N" horiz-adv-x="1392" d="M102 0v1434h328l451 -656v656h409v-1434h-327l-451 655v-655h-410z" />
<glyph unicode="O" horiz-adv-x="1622" d="M51 717q0 208 101 380.5t275.5 270.5t383.5 98t383.5 -98t275.5 -270.5t101 -380.5t-101 -380.5t-275.5 -271t-383.5 -98.5t-383.5 98.5t-275.5 271t-101 380.5zM461 717q0 -150 99 -249t251 -99t251 99t99 249t-99 249t-251 99t-251 -99t-99 -249z" />
<glyph unicode="P" horiz-adv-x="1218" d="M102 0v1434h574q145 0 263 -61t188.5 -179.5t70.5 -273.5t-70.5 -273.5t-188.5 -179.5t-263 -61h-164v-406h-410zM512 803h164q48 0 80 31.5t32 85.5t-32 85t-80 31h-164v-233z" />
<glyph unicode="Q" horiz-adv-x="1632" d="M51 717q0 208 101 380.5t275.5 270.5t383.5 98t383.5 -98t275.5 -270.5t101 -380.5q0 -251 -146 -449l115 -125l-280 -245l-127 137q-152 -68 -322 -68q-209 0 -383.5 98.5t-275.5 271t-101 380.5zM461 717q0 -150 99 -249t251 -99h14l-176 192l283 244l205 -223 q24 62 24 135q0 150 -99 249t-251 99t-251 -99t-99 -249z" />
<glyph unicode="R" horiz-adv-x="1280" d="M102 2v1434h574q154 0 277 -61t194.5 -176.5t71.5 -266.5q0 -128 -59 -230t-163 -165l283 -535h-438l-228 451h-102v-451h-410zM512 793h156h7q60 0 96 33q38 35 38 98t-38 99t-103 36h-156v-266z" />
<glyph unicode="S" horiz-adv-x="1198" d="M20 328l351 202q72 -182 258 -182q70 0 104.5 20t34.5 54q0 16 -6 28.5t-19.5 22.5t-28 17.5t-40 15.5t-46 13.5t-55 15t-59.5 16.5q-95 29 -168 66.5t-134 92t-93.5 131t-32.5 171.5q0 197 142.5 325.5t373.5 128.5q184 0 328 -85.5t211 -247.5l-340 -199 q-31 77 -83 114t-114 37q-54 0 -81 -21t-27 -54q0 -44 48 -69t185 -64q56 -16 96.5 -30t90.5 -36t85 -45t70.5 -57.5t57.5 -74t35.5 -93t13.5 -115.5q0 -218 -150.5 -338.5t-409.5 -120.5q-233 0 -388.5 97.5t-209.5 263.5z" />
<glyph unicode="T" horiz-adv-x="1126" d="M20 1036v398h1086v-398h-338v-1036h-410v1036h-338z" />
<glyph unicode="U" horiz-adv-x="1331" d="M82 479v955h410v-910q0 -159 174 -159t174 159v910h409v-955q0 -230 -161.5 -371t-421.5 -141t-422 141t-162 371z" />
<glyph unicode="V" horiz-adv-x="1372" d="M0 1434h451l235 -912l236 912h450l-457 -1434h-458z" />
<glyph unicode="W" horiz-adv-x="2068" d="M0 1434h451l194 -789l232 789h315l231 -789l195 789h450l-405 -1434h-403l-226 766l-225 -766h-403z" />
<glyph unicode="X" horiz-adv-x="1320" d="M0 0l434 725l-424 709h455l197 -328l194 328h455l-422 -709l432 -725h-455l-204 344l-207 -344h-455z" />
<glyph unicode="Y" horiz-adv-x="1380" d="M0 1434h455l235 -504l236 504h454l-485 -889v-545h-410v545z" />
<glyph unicode="Z" horiz-adv-x="1116" d="M61 0v315l457 721h-446v398h983v-316l-457 -721h477v-397h-1014z" />
<glyph unicode="[" horiz-adv-x="696" d="M82 -205v1843h573v-360h-194v-1122h194v-361h-573z" />
<glyph unicode="\" horiz-adv-x="1064" d="M41 1638h164l819 -1843h-164z" />
<glyph unicode="]" horiz-adv-x="696" d="M41 156h195v1122h-195v360h573v-1843h-573v361z" />
<glyph unicode="^" horiz-adv-x="1187" d="M41 676l422 758h262l422 -758h-410l-143 301l-143 -301h-410z" />
<glyph unicode="_" horiz-adv-x="1044" d="M41 -35h963v-356h-963v356z" />
<glyph unicode="`" horiz-adv-x="675" d="M41 1434l238 -308h356l-164 308h-430z" />
<glyph unicode="a" d="M37 512q0 234 131 387.5t338 153.5q177 0 274 -121v92h379v-1024h-379v92q-97 -121 -274 -121q-207 0 -338 153.5t-131 387.5zM416 512q0 -83 50 -138t132 -55t132 55t50 138t-50 138t-132 55t-132 -55t-50 -138z" />
<glyph unicode="b" d="M82 0v1434h379v-502q97 121 274 121q207 0 338 -153.5t131 -387.5t-131 -387.5t-338 -153.5q-177 0 -274 121v-92h-379zM461 512q0 -83 50 -138t132 -55t132 55t50 138t-50 138t-132 55t-132 -55t-50 -138z" />
<glyph unicode="c" horiz-adv-x="1075" d="M37 512q0 231 156.5 386t390.5 155q152 0 277.5 -73t193.5 -196l-320 -182q-23 39 -62.5 62.5t-88.5 23.5q-72 0 -120 -50t-48 -126t48 -126t120 -50q50 0 90 24.5t61 63.5l320 -184q-68 -124 -193.5 -196.5t-277.5 -72.5q-234 0 -390.5 155t-156.5 386z" />
<glyph unicode="d" d="M37 512q0 234 131 387.5t338 153.5q177 0 274 -121v502h379v-1434h-379v92q-97 -121 -274 -121q-207 0 -338 153.5t-131 387.5zM416 512q0 -83 50 -138t132 -55t132 55t50 138t-50 138t-132 55t-132 -55t-50 -138z" />
<glyph unicode="e" horiz-adv-x="1146" d="M37 508q0 233 155 389t390 156q233 0 383.5 -153.5t150.5 -383.5q0 -68 -16 -133h-680q49 -102 209 -102q96 0 174 65l248 -209q-77 -83 -191 -124.5t-244 -41.5q-131 0 -241 41.5t-183.5 114t-114 170.5t-40.5 211zM414 627h344q-36 123 -166 123q-61 0 -108.5 -31 t-69.5 -92z" />
<glyph unicode="f" horiz-adv-x="675" d="M20 664v360h119q0 220 137 338q122 106 342 106q28 0 58 -2v-340q-13 1 -25 1q-57 0 -91 -23q-42 -29 -42 -80h158v-360h-158v-664h-379v664h-119z" />
<glyph unicode="g" horiz-adv-x="1255" d="M51 532q0 144 58.5 262.5t166.5 188.5t244 70q178 0 275 -121v92h379v-993q0 -99 -30.5 -179.5t-82 -134t-121.5 -90.5t-145.5 -53t-157.5 -16q-180 0 -320 64.5t-206 184.5l307 179q74 -101 198 -101q71 0 125 36.5t54 109.5v102q-97 -121 -275 -121q-136 0 -244 69.5 t-166.5 188t-58.5 262.5zM430 532q0 -77 50.5 -130.5t131.5 -53.5t132 53.5t51 130.5t-51 131t-132 54t-131.5 -54t-50.5 -131z" />
<glyph unicode="h" horiz-adv-x="1177" d="M82 0v1434h379v-510q94 129 274 129q168 0 269.5 -116t101.5 -345v-592h-379v551q0 68 -33.5 102.5t-93.5 34.5q-68 0 -103.5 -43t-35.5 -119v-526h-379z" />
<glyph unicode="i" horiz-adv-x="542" d="M61 1311q0 85 62.5 147t148.5 62q85 0 147 -62t62 -147t-62 -147t-147 -62q-86 0 -148.5 62t-62.5 147zM82 0v1024h379v-1024h-379z" />
<glyph unicode="j" horiz-adv-x="573" d="M-20 -102q14 -1 26 -1q49 0 75 19q32 25 32 84v1024h379v-1024q0 -242 -124 -349q-111 -95 -329 -95q-29 0 -59 2v340zM92 1311q0 85 62.5 147t148.5 62q85 0 147 -62t62 -147t-62 -147t-147 -62q-86 0 -148.5 62t-62.5 147z" />
<glyph unicode="k" horiz-adv-x="1126" d="M82 0v1434h379v-807l215 397h430l-311 -512l331 -512h-419l-246 410v-410h-379z" />
<glyph unicode="l" horiz-adv-x="542" d="M82 0v1495h379v-1495h-379z" />
<glyph unicode="m" horiz-adv-x="1740" d="M82 0v1024h379v-96q100 125 278 125q176 0 256 -127q110 127 295 127q179 0 279 -111.5t100 -318.5v-623h-379v571q0 55 -26 86t-78 31q-62 0 -91.5 -42t-29.5 -109v-537h-379v571q0 55 -26 86t-78 31q-62 0 -91.5 -42t-29.5 -109v-537h-379z" />
<glyph unicode="n" horiz-adv-x="1177" d="M82 0v1024h379v-100q94 129 274 129q168 0 269.5 -116t101.5 -345v-592h-379v551q0 68 -33.5 102.5t-93.5 34.5q-68 0 -103.5 -43t-35.5 -119v-526h-379z" />
<glyph unicode="o" horiz-adv-x="1175" d="M37 512q0 151 73.5 275.5t199.5 195t278 70.5t278 -70.5t199.5 -195t73.5 -275.5t-73.5 -275.5t-199.5 -195t-278 -70.5q-112 0 -213.5 41.5t-176 113.5t-118 172.5t-43.5 213.5zM416 512q0 -79 48.5 -129.5t123.5 -50.5t123.5 50.5t48.5 129.5t-48.5 129.5t-123.5 50.5 t-123.5 -50.5t-48.5 -129.5z" />
<glyph unicode="p" d="M82 -410v1434h379v-92q97 121 274 121q207 0 338 -153.5t131 -387.5t-131 -387.5t-338 -153.5q-177 0 -274 121v-502h-379zM461 512q0 -83 50 -138t132 -55t132 55t50 138t-50 138t-132 55t-132 -55t-50 -138z" />
<glyph unicode="q" d="M37 512q0 234 131 387.5t338 153.5q177 0 274 -121v92h379v-1434h-379v502q-97 -121 -274 -121q-207 0 -338 153.5t-131 387.5zM416 512q0 -83 50 -138t132 -55t132 55t50 138t-50 138t-132 55t-132 -55t-50 -138z" />
<glyph unicode="r" horiz-adv-x="798" d="M82 0v1024h379v-199q29 104 112.5 161.5t194.5 57.5v-409q-24 3 -47 3q-31 0 -63 -6q-54 -11 -98.5 -40t-71.5 -83.5t-27 -127.5v-381h-379z" />
<glyph unicode="s" horiz-adv-x="991" d="M20 215l330 147q40 -104 146 -104q69 0 69 45q0 20 -27 34t-70.5 24t-96 22.5t-105.5 35.5t-96.5 56t-70.5 91t-27 134q0 86 37 155t98.5 111t135.5 64.5t153 22.5q163 0 274 -59.5t170 -200.5l-313 -113q-38 86 -115 86q-63 0 -63 -43q0 -18 22 -30.5t58 -19t82 -16.5 t94 -21.5t94 -36t82 -57.5t58 -88.5t22 -127.5q0 -80 -30 -143.5t-76.5 -102.5t-109 -64t-123 -35t-122.5 -10q-181 0 -301 56t-179 188z" />
<glyph unicode="t" horiz-adv-x="819" d="M20 664v360h144v174l379 113v-287h215v-360h-215v-222q0 -51 25 -76q24 -24 72 -27q20 -1 45 -2q33 0 73 3v-340q-99 -14 -180 -14q-97 0 -168 20q-131 36 -188.5 137t-57.5 279v242h-144z" />
<glyph unicode="u" horiz-adv-x="1177" d="M72 432v592h379v-551q0 -68 33.5 -102.5t93.5 -34.5q68 0 103.5 43t35.5 119v526h379v-1024h-379v100q-94 -129 -275 -129q-168 0 -269 116t-101 345z" />
<glyph unicode="v" horiz-adv-x="1167" d="M0 1024h420l164 -512l164 512h419l-389 -1024h-389z" />
<glyph unicode="w" horiz-adv-x="1699" d="M41 1024h399l119 -567l148 567h286l148 -567l119 567h399l-297 -1024h-385l-127 481l-127 -481h-385z" />
<glyph unicode="x" horiz-adv-x="1167" d="M0 0l375 524l-359 500h420l148 -207l147 207h420l-356 -500l372 -524h-419l-164 229l-164 -229h-420z" />
<glyph unicode="y" horiz-adv-x="1167" d="M0 1024h430l182 -547l125 547h430l-348 -1022q-76 -223 -236 -323q-144 -90 -370 -90q-25 0 -51 1v359q105 0 160 15t88 56z" />
<glyph unicode="z" horiz-adv-x="1013" d="M82 0v266l336 410h-316v348h820v-266l-336 -410h356v-348h-860z" />
<glyph unicode="{" horiz-adv-x="747" d="M61 541v358q77 -6 115.5 17t38.5 85v256q0 205 123.5 311t368.5 91v-340q-113 12 -113 -62v-256q0 -212 -170 -280q170 -71 170 -283v-256q0 -73 113 -61v-340q-245 -15 -368.5 91t-123.5 310v256q0 62 -38.5 85.5t-115.5 17.5z" />
<glyph unicode="|" horiz-adv-x="583" d="M102 -410v1885h379v-1885h-379z" />
<glyph unicode="}" horiz-adv-x="747" d="M41 121q113 -12 113 61v256q0 212 170 283q-170 68 -170 280v256q0 74 -113 62v340q245 15 368 -91t123 -311v-256q0 -62 38.5 -85t115.5 -17v-358q-77 6 -115.5 -17.5t-38.5 -85.5v-256q0 -205 -123 -310.5t-368 -90.5v340z" />
<glyph unicode="~" horiz-adv-x="1253" d="M61 594q25 121 80.5 207t130 128.5t166.5 42.5t189 -46q95 -45 145.5 -54.5t78 11.5t46.5 82l295 -134q-25 -121 -80 -207t-129.5 -128t-166.5 -42t-189 46q-96 45 -147 54.5t-78.5 -11.5t-45.5 -82z" />
<glyph unicode="&#xa1;" horiz-adv-x="634" d="M82 0l72 492h327l72 -492v-410h-471v410zM82 819q0 98 68.5 167t166.5 69t167 -69t69 -167t-69 -166.5t-167 -68.5t-166.5 68.5t-68.5 166.5z" />
<glyph unicode="&#xa2;" horiz-adv-x="1075" d="M37 717q0 151 71 275t196.5 194.5t279.5 70.5q36 0 102 -8l59 185h134l-72 -222q164 -73 248 -223l-320 -182q-15 27 -43 49l-102 -315q48 1 86 25.5t59 62.5l320 -185q-68 -124 -193 -196t-278 -72q-51 0 -109 10l-59 -186h-133l71 223q-144 62 -230.5 194.5 t-86.5 299.5zM416 717q0 -84 55 -133l100 309q-68 -5 -111.5 -54t-43.5 -122z" />
<glyph unicode="&#xa3;" horiz-adv-x="1167" d="M41 0v397h117v166h-97v287h97v137q0 117 42 211.5t111.5 151t153.5 86.5t174 30q185 0 310.5 -81.5t199.5 -254.5l-354 -190q-43 141 -136 141q-45 0 -68.5 -33t-23.5 -87v-111h375v-287h-375v-166h600v-397h-1126z" />
<glyph unicode="&#xa4;" horiz-adv-x="1077" d="M41 313l141 142q-88 115 -88 262t88 262l-141 141l94 94l146 -145q115 78 258 78t258 -78l145 145l94 -94l-143 -141q90 -114 90 -262t-90 -262l143 -142l-94 -94l-145 146q-115 -78 -258 -78t-258 78l-146 -146zM451 717q0 -39 23.5 -62.5t64.5 -23.5t64.5 23.5 t23.5 62.5t-23.5 62.5t-64.5 23.5t-64.5 -23.5t-23.5 -62.5z" />
<glyph unicode="&#xa5;" horiz-adv-x="1339" d="M0 1434h455l235 -504l236 504h454l-360 -662h162v-205h-275l-12 -22v-64h287v-205h-287v-276h-410v276h-327v205h327v64l-12 22h-315v205h202z" />
<glyph unicode="&#xa6;" horiz-adv-x="583" d="M102 348h379v-758h-379v758zM102 717v758h379v-758h-379z" />
<glyph unicode="&#xa7;" horiz-adv-x="1099" d="M61 655q0 158 113 250q-51 84 -51 199q0 88 37.5 159t99 114t136 66t153.5 23q159 0 270 -63t182 -207l-303 -143q-39 127 -129 127q-31 0 -50 -16t-19 -40q0 -23 15 -41.5t46 -34.5t61.5 -28t81 -30.5t84.5 -33.5q60 -26 104.5 -55t84.5 -71t61 -101.5t21 -134.5 q0 -152 -107 -244q66 -85 66 -217q0 -117 -66.5 -201t-170 -122.5t-230.5 -38.5q-358 0 -473 260l313 159q53 -116 160 -116q90 0 90 59q0 18 -13.5 33t-42 28.5t-56.5 24t-74 26.5t-78 29q-51 20 -92 42t-84.5 55.5t-72.5 72.5t-48 93.5t-19 117.5zM430 666q0 -36 27.5 -56 t89.5 -46q12 -4 18 -7q41 -17 94 -33q31 22 31 60q0 12 -4.5 22.5t-9.5 17t-18 14t-21 11t-28.5 12.5t-30.5 13q-33 14 -125 47q-23 -23 -23 -55z" />
<glyph unicode="&#xa8;" horiz-adv-x="819" d="M41 1260q0 72 51 123t123 51t123 -51t51 -123t-51 -123.5t-123 -51.5t-123 51.5t-51 123.5zM451 1260q0 72 51 123t123 51t123 -51t51 -123t-51 -123.5t-123 -51.5t-123 51.5t-51 123.5z" />
<glyph unicode="&#xa9;" horiz-adv-x="1585" d="M51 717q0 202 99.5 372.5t270 269.5t372.5 99q151 0 288.5 -58.5t236.5 -157.5t157.5 -236.5t58.5 -288.5q0 -202 -99 -372.5t-269.5 -270t-372.5 -99.5t-372.5 99.5t-270 270t-99.5 372.5zM154 717q0 -132 50.5 -252t136.5 -206.5t204 -137.5t248 -51t248 51t204 137.5 t136.5 206.5t50.5 252t-50.5 252t-136.5 206.5t-204 137.5t-248 51t-248 -51t-204 -137.5t-136.5 -206.5t-50.5 -252zM391 717q0 164 120.5 283.5t287.5 119.5q106 0 196.5 -52t145.5 -148l-260 -150q-30 49 -90 49q-46 0 -74.5 -30.5t-28.5 -71.5q0 -42 28.5 -72.5 t74.5 -30.5q60 0 90 50l262 -150q-55 -96 -146.5 -148.5t-197.5 -52.5q-167 0 -287.5 119.5t-120.5 284.5z" />
<glyph unicode="&#xab;" horiz-adv-x="1181" d="M102 633l236 409h311l-235 -409l235 -410h-311zM532 633l236 409h311l-235 -409l235 -410h-311z" />
<glyph unicode="&#xac;" horiz-adv-x="1187" d="M61 532v369h1065v-614h-389v245h-676z" />
<glyph unicode="&#xad;" horiz-adv-x="1024" d="M102 444v357h820v-357h-820z" />
<glyph unicode="&#xae;" horiz-adv-x="1585" d="M51 717q0 202 99.5 372.5t270 269.5t372.5 99q151 0 288.5 -58.5t236.5 -157.5t157.5 -236.5t58.5 -288.5q0 -202 -99 -372.5t-269.5 -270t-372.5 -99.5t-372.5 99.5t-270 270t-99.5 372.5zM154 717q0 -132 50.5 -252t136.5 -206.5t204 -137.5t248 -51t248 51t204 137.5 t136.5 206.5t50.5 252t-50.5 252t-136.5 206.5t-204 137.5t-248 51t-248 -51t-204 -137.5t-136.5 -206.5t-50.5 -252zM475 338v758h397q117 0 202 -75t85 -190q0 -73 -28 -134.5t-76 -102.5l145 -256h-309l-98 188h-27v-188h-291zM766 752h45q57 0 57 49t-57 49h-45v-98z " />
<glyph unicode="&#xaf;" horiz-adv-x="737" d="M41 1124v287h655v-287h-655z" />
<glyph unicode="&#xb0;" horiz-adv-x="872" d="M61 1290q0 155 107 262t268 107t268 -107t107 -262q0 -154 -106 -261t-269 -107q-161 0 -268 107.5t-107 260.5zM356 1290q0 -35 22.5 -58.5t57.5 -23.5q37 0 58.5 22.5t21.5 59.5q0 35 -22.5 58.5t-57.5 23.5t-57.5 -23.5t-22.5 -58.5z" />
<glyph unicode="&#xb1;" horiz-adv-x="1146" d="M61 0v369h1024v-369h-1024zM61 737v369h328v266h369v-266h327v-369h-327v-266h-369v266h-328z" />
<glyph unicode="&#xb4;" horiz-adv-x="675" d="M41 1126h356l238 308h-430z" />
<glyph unicode="&#xb5;" horiz-adv-x="1218" d="M82 -410v1434h379v-555q0 -68 33.5 -102.5t93.5 -34.5q68 0 103.5 43t35.5 119v530h379v-635q0 -61 61 -61h31v-328h-164q-164 0 -246 102q-86 -135 -294 -135q-23 0 -33 2v-379h-379z" />
<glyph unicode="&#xb6;" horiz-adv-x="1556" d="M41 963q0 97 37 184t100 150t150 100t184 37h1004v-398h-148v-1446h-369v1446h-118v-1446h-369v902q-129 0 -237.5 63.5t-171 172t-62.5 235.5z" />
<glyph unicode="&#xb7;" horiz-adv-x="614" d="M72 727q0 98 68.5 167t166.5 69t167 -69t69 -167t-69 -166.5t-167 -68.5t-166.5 68.5t-68.5 166.5z" />
<glyph unicode="&#xb8;" horiz-adv-x="583" d="M41 -229q195 -15 195 28q0 31 -109 41v160h307v-94q39 -16 74 -55t35 -103q0 -115 -125 -170.5t-377 -40.5v234z" />
<glyph unicode="&#xbb;" horiz-adv-x="1181" d="M102 223l236 410l-236 409h312l235 -409l-235 -410h-312zM532 223l236 410l-236 409h312l235 -409l-235 -410h-312z" />
<glyph unicode="&#xbc;" horiz-adv-x="1689" d="M0 1335l270 99h248v-820h-291v514l-159 -38zM203 0l839 1434h267l-840 -1434h-266zM950 104v246l226 469h301l-213 -469h75v135h263v-135h67v-246h-67v-104h-263v104h-389z" />
<glyph unicode="&#xbd;" horiz-adv-x="1658" d="M0 1335l270 99h248v-820h-291v514l-159 -38zM203 0l839 1434h267l-840 -1434h-266zM971 647q103 201 332 201q125 0 217 -75t92 -195q0 -70 -35.5 -130t-108.5 -126l-73 -66h219v-256h-627v209l287 268q55 52 55 84q0 37 -41 37q-47 0 -80 -86z" />
<glyph unicode="&#xbe;" horiz-adv-x="1779" d="M0 786l233 134q29 -82 103 -82q57 0 57 41q0 39 -47 39h-65l-103 153l98 111h-233v252h598v-183l-131 -147q162 -61 162 -225q0 -140 -93 -216.5t-243 -76.5q-244 0 -336 200zM293 0l840 1434h266l-840 -1434h-266zM1040 104v246l226 469h301l-213 -469h76v135h262v-135 h67v-246h-67v-104h-262v104h-390z" />
<glyph unicode="&#xbf;" horiz-adv-x="1089" d="M61 -39q0 73 24 137.5t59.5 107.5t77.5 84t77.5 71t59.5 64.5t24 66.5h369q0 -72 -29 -134.5t-70 -105.5t-82.5 -80t-70.5 -74.5t-29 -72.5q0 -34 23 -54t61 -20q101 0 168 149l346 -196q-49 -118 -134 -197.5t-184 -114t-212 -34.5q-207 0 -342.5 109.5t-135.5 293.5z M332 819q0 98 68.5 167t166.5 69t167 -69t69 -167t-69 -166.5t-167 -68.5t-166.5 68.5t-68.5 166.5z" />
<glyph unicode="&#xc0;" horiz-adv-x="1351" d="M-20 0l456 1434h479l457 -1434h-440l-49 184h-414l-49 -184h-440zM287 1843h430l164 -307h-357zM557 512h238l-119 440z" />
<glyph unicode="&#xc1;" horiz-adv-x="1351" d="M-20 0l456 1434h479l457 -1434h-440l-49 184h-414l-49 -184h-440zM451 1536l163 307h430l-237 -307h-356zM557 512h238l-119 440z" />
<glyph unicode="&#xc2;" horiz-adv-x="1351" d="M-20 0l456 1434h479l457 -1434h-440l-49 184h-414l-49 -184h-440zM256 1516l217 327h385l217 -327h-317l-92 118l-93 -118h-317zM557 512h238l-119 440z" />
<glyph unicode="&#xc3;" horiz-adv-x="1351" d="M-20 0l456 1434h479l457 -1434h-440l-49 184h-414l-49 -184h-440zM309 1522q0 99 23.5 170t61 108t87.5 52.5t101 9.5t102 -27q10 -4 29.5 -14t28.5 -13.5t22.5 -6t19.5 3t10.5 20t4.5 39.5h245q0 -101 -23.5 -173t-61 -109t-87.5 -51.5t-101 -8t-103 27.5l-29 14.5 t-28 13.5t-22 6t-19 -3.5t-10.5 -19.5t-4.5 -39h-246zM557 512h238l-119 440z" />
<glyph unicode="&#xc4;" horiz-adv-x="1351" d="M-20 0l456 1434h479l457 -1434h-440l-49 184h-414l-49 -184h-440zM297 1669q0 72 51 123t123 51t123 -51t51 -123t-51 -123t-123 -51t-123 51t-51 123zM557 512h238l-119 440zM707 1669q0 72 51 123t123 51t123 -51t51 -123t-51 -123t-123 -51t-123 51t-51 123z" />
<glyph unicode="&#xc5;" horiz-adv-x="1351" d="M-20 0l448 1405q-57 72 -57 172q0 124 86 205.5t219 81.5q136 0 220.5 -81t84.5 -206q0 -100 -55 -174l446 -1403h-440l-49 184h-414l-49 -184h-440zM557 512h238l-119 440zM612 1577q0 -27 17 -44t47 -17q31 0 48 17t17 44t-17 44t-48 17q-30 0 -47 -17t-17 -44z" />
<glyph unicode="&#xc6;" horiz-adv-x="1822" d="M-20 0l796 1434h975v-373h-451v-156h400v-368h-400v-160h461v-377h-860v184h-373l-98 -184h-450zM707 512h194v362z" />
<glyph unicode="&#xc7;" horiz-adv-x="1470" d="M51 717q0 157 56.5 295.5t155 238.5t238.5 157.5t300 57.5q199 0 366.5 -94t262.5 -254l-357 -205q-35 69 -108.5 110.5t-163.5 41.5q-151 0 -245.5 -98.5t-94.5 -249.5t94.5 -249.5t245.5 -98.5q92 0 164.5 41t107.5 112l357 -205q-75 -127 -198 -214t-274 -119v-78 q39 -16 74 -55t35 -103q0 -115 -125 -170.5t-377 -40.5v234q195 -15 195 28q0 31 -109 41v142q-175 31 -311.5 134t-212.5 260t-76 341z" />
<glyph unicode="&#xc8;" horiz-adv-x="1105" d="M102 0v1434h932v-373h-522v-156h471v-368h-471v-160h532v-377h-942zM180 1843h430l164 -307h-356z" />
<glyph unicode="&#xc9;" horiz-adv-x="1105" d="M102 0v1434h932v-373h-522v-156h471v-368h-471v-160h532v-377h-942zM344 1536l164 307h430l-238 -307h-356z" />
<glyph unicode="&#xca;" horiz-adv-x="1105" d="M102 0v1434h932v-373h-522v-156h471v-368h-471v-160h532v-377h-942zM150 1516l217 327h385l217 -327h-318l-92 118l-92 -118h-317z" />
<glyph unicode="&#xcb;" horiz-adv-x="1105" d="M102 0v1434h932v-373h-522v-156h471v-368h-471v-160h532v-377h-942zM190 1669q0 72 51.5 123t123.5 51t123 -51t51 -123t-51 -123t-123 -51t-123.5 51t-51.5 123zM600 1669q0 72 51 123t123 51t123 -51t51 -123t-51 -123t-123 -51t-123 51t-51 123z" />
<glyph unicode="&#xcc;" horiz-adv-x="614" d="M-82 1843l238 -307h356l-164 307h-430zM102 0v1434h410v-1434h-410z" />
<glyph unicode="&#xcd;" horiz-adv-x="614" d="M82 1536h356l238 307h-430zM102 0v1434h410v-1434h-410z" />
<glyph unicode="&#xce;" horiz-adv-x="614" d="M-113 1516l217 327h385l218 -327h-318l-92 118l-92 -118h-318zM102 0v1434h410v-1434h-410z" />
<glyph unicode="&#xcf;" horiz-adv-x="614" d="M-72 1669q0 72 51 123t123 51t123 -51t51 -123t-51 -123t-123 -51t-123 51t-51 123zM102 0v1434h410v-1434h-410zM338 1669q0 72 51 123t123 51t123 -51t51 -123t-51 -123t-123 -51t-123 51t-51 123z" />
<glyph unicode="&#xd0;" horiz-adv-x="1484" d="M0 528v357h143v549h594q146 0 275.5 -55.5t221.5 -150.5t146 -228t54 -283t-54 -283t-146 -228t-221.5 -150.5t-275.5 -55.5h-594v528h-143zM573 397h164q125 0 206 89t81 231t-81 230.5t-206 88.5h-164v-151h246v-357h-246v-131z" />
<glyph unicode="&#xd1;" horiz-adv-x="1392" d="M102 0v1434h328l451 -656v656h409v-1434h-327l-451 655v-655h-410zM299 1522q0 99 23.5 170t61 108t87.5 52.5t101 9.5t102 -27q11 -5 30 -14t28 -13t22 -6.5t19 3t10.5 20t4.5 39.5h246q0 -101 -23.5 -173t-61 -109t-88 -51.5t-101.5 -8t-103 27.5l-29 14.5t-28 13.5 t-21.5 6t-18.5 -3.5t-10.5 -19.5t-4.5 -39h-246z" />
<glyph unicode="&#xd2;" horiz-adv-x="1622" d="M51 717q0 208 101 380.5t275.5 270.5t383.5 98t383.5 -98t275.5 -270.5t101 -380.5t-101 -380.5t-275.5 -271t-383.5 -98.5t-383.5 98.5t-275.5 271t-101 380.5zM422 1864l237 -308h357l-164 308h-430zM461 717q0 -150 99 -249t251 -99t251 99t99 249t-99 249t-251 99 t-251 -99t-99 -249z" />
<glyph unicode="&#xd3;" horiz-adv-x="1622" d="M51 717q0 208 101 380.5t275.5 270.5t383.5 98t383.5 -98t275.5 -270.5t101 -380.5t-101 -380.5t-275.5 -271t-383.5 -98.5t-383.5 98.5t-275.5 271t-101 380.5zM461 717q0 -150 99 -249t251 -99t251 99t99 249t-99 249t-251 99t-251 -99t-99 -249zM586 1556h356l238 308 h-430z" />
<glyph unicode="&#xd4;" horiz-adv-x="1622" d="M51 717q0 208 101 380.5t275.5 270.5t383.5 98t383.5 -98t275.5 -270.5t101 -380.5t-101 -380.5t-275.5 -271t-383.5 -98.5t-383.5 98.5t-275.5 271t-101 380.5zM391 1536l217 328h385l217 -328h-317l-92 119l-92 -119h-318zM461 717q0 -150 99 -249t251 -99t251 99 t99 249t-99 249t-251 99t-251 -99t-99 -249z" />
<glyph unicode="&#xd5;" horiz-adv-x="1622" d="M51 717q0 208 101 380.5t275.5 270.5t383.5 98t383.5 -98t275.5 -270.5t101 -380.5t-101 -380.5t-275.5 -271t-383.5 -98.5t-383.5 98.5t-275.5 271t-101 380.5zM444 1542q0 99 23.5 170t61 108t87.5 52.5t101 9.5t102 -27q10 -4 29.5 -14t28.5 -13.5t22.5 -6t19.5 3 t10.5 20t4.5 39.5h246q0 -101 -23.5 -173t-61 -108.5t-88 -51t-101.5 -8t-103 27.5q-10 4 -29 14t-28 13.5t-22 6t-19 -3.5t-10.5 -20t-4.5 -39h-246zM461 717q0 -150 99 -249t251 -99t251 99t99 249t-99 249t-251 99t-251 -99t-99 -249z" />
<glyph unicode="&#xd6;" horiz-adv-x="1622" d="M51 717q0 208 101 380.5t275.5 270.5t383.5 98t383.5 -98t275.5 -270.5t101 -380.5t-101 -380.5t-275.5 -271t-383.5 -98.5t-383.5 98.5t-275.5 271t-101 380.5zM432 1690q0 72 51 123t123 51t123 -51t51 -123t-51 -123t-123 -51t-123 51t-51 123zM461 717 q0 -150 99 -249t251 -99t251 99t99 249t-99 249t-251 99t-251 -99t-99 -249zM842 1690q0 72 51 123t123 51t123 -51t51 -123t-51 -123t-123 -51t-123 51t-51 123z" />
<glyph unicode="&#xd7;" horiz-adv-x="1132" d="M61 473l244 244l-244 244l261 262l245 -244l244 244l260 -262l-244 -244l244 -244l-260 -262l-244 246l-245 -246z" />
<glyph unicode="&#xd8;" horiz-adv-x="1632" d="M61 717q0 208 101 380.5t275.5 270.5t383.5 98q227 0 410 -114l90 110l154 -86l-109 -131q102 -104 158.5 -239t56.5 -289q0 -208 -101 -380.5t-275.5 -271t-383.5 -98.5q-224 0 -409 115l-90 -111l-154 86l108 131q-102 103 -158.5 239t-56.5 290zM471 717 q0 -117 66 -209l434 526q-70 31 -150 31q-152 0 -251 -99t-99 -249zM672 399q68 -30 149 -30q152 0 251 99t99 249q0 119 -65 209z" />
<glyph unicode="&#xd9;" horiz-adv-x="1331" d="M82 479v955h410v-910q0 -159 174 -159t174 159v910h409v-955q0 -230 -161.5 -371t-421.5 -141t-422 141t-162 371zM276 1843l238 -307h356l-163 307h-431z" />
<glyph unicode="&#xda;" horiz-adv-x="1331" d="M82 479v955h410v-910q0 -159 174 -159t174 159v910h409v-955q0 -230 -161.5 -371t-421.5 -141t-422 141t-162 371zM440 1536h357l237 307h-430z" />
<glyph unicode="&#xdb;" horiz-adv-x="1331" d="M82 479v955h410v-910q0 -159 174 -159t174 159v910h409v-955q0 -230 -161.5 -371t-421.5 -141t-422 141t-162 371zM246 1516l217 327h385l217 -327h-317l-93 118l-92 -118h-317z" />
<glyph unicode="&#xdc;" horiz-adv-x="1331" d="M82 479v955h410v-910q0 -159 174 -159t174 159v910h409v-955q0 -230 -161.5 -371t-421.5 -141t-422 141t-162 371zM287 1669q0 72 51 123t123 51t123 -51t51 -123t-51 -123t-123 -51t-123 51t-51 123zM696 1669q0 72 51 123t123 51t123 -51t51 -123t-51 -123t-123 -51 t-123 51t-51 123z" />
<glyph unicode="&#xdd;" horiz-adv-x="1380" d="M0 1434h455l235 -504l236 504h454l-485 -889v-545h-410v545zM465 1536l164 307h430l-238 -307h-356z" />
<glyph unicode="&#xde;" horiz-adv-x="1218" d="M102 2v1434h410v-203h164q145 0 263 -61t188.5 -179.5t70.5 -273.5t-70.5 -273.5t-188.5 -179.5t-263 -61h-164v-203h-410zM512 602h164q48 0 80 31.5t32 85.5t-32 85.5t-80 31.5h-164v-234z" />
<glyph unicode="&#xdf;" horiz-adv-x="1144" d="M82 0v999q0 222 134.5 344.5t356.5 122.5q114 0 207 -33t151 -87t89 -119.5t31 -134.5q0 -51 -14.5 -93.5t-32 -67t-32 -56t-14.5 -62.5q0 -33 18 -73.5t44 -84t52.5 -92.5t44.5 -116.5t18 -139.5q0 -56 -12.5 -103t-40 -89.5t-72.5 -71t-109.5 -47t-150 -18t-195.5 15.5 v340q110 -14 155.5 6.5t45.5 71.5q0 42 -27 99t-60 104.5t-60 100.5t-27 87q0 39 34.5 110t34.5 123q0 45 -22 74t-68 29q-49 0 -74.5 -33.5t-25.5 -87.5v-1018h-379z" />
<glyph unicode="&#xe0;" d="M37 512q0 234 131 387.5t338 153.5q177 0 274 -121v92h379v-1024h-379v92q-97 -121 -274 -121q-207 0 -338 153.5t-131 387.5zM231 1434h431l163 -308h-356zM416 512q0 -83 50 -138t132 -55t132 55t50 138t-50 138t-132 55t-132 -55t-50 -138z" />
<glyph unicode="&#xe1;" d="M37 512q0 234 131 387.5t338 153.5q177 0 274 -121v92h379v-1024h-379v92q-97 -121 -274 -121q-207 0 -338 153.5t-131 387.5zM395 1126l164 308h430l-237 -308h-357zM416 512q0 -83 50 -138t132 -55t132 55t50 138t-50 138t-132 55t-132 -55t-50 -138z" />
<glyph unicode="&#xe2;" d="M37 512q0 234 131 387.5t338 153.5q177 0 274 -121v92h379v-1024h-379v92q-97 -121 -274 -121q-207 0 -338 153.5t-131 387.5zM201 1106l217 328h385l217 -328h-318l-92 119l-92 -119h-317zM416 512q0 -83 50 -138t132 -55t132 55t50 138t-50 138t-132 55t-132 -55 t-50 -138z" />
<glyph unicode="&#xe3;" d="M37 512q0 234 131 387.5t338 153.5q177 0 274 -121v92h379v-1024h-379v92q-97 -121 -274 -121q-207 0 -338 153.5t-131 387.5zM254 1112q0 99 23.5 170t61 108t87.5 52.5t101 9.5t102 -27q11 -5 30 -14t28 -13t22 -6.5t19 3t10.5 20t4.5 39.5h246q0 -101 -23.5 -173 t-61 -108.5t-88 -51t-101.5 -8t-103 27.5q-10 4 -29 14t-27.5 13.5t-21.5 6t-19 -3t-10.5 -20t-4.5 -39.5h-246zM416 512q0 -83 50 -138t132 -55t132 55t50 138t-50 138t-132 55t-132 -55t-50 -138z" />
<glyph unicode="&#xe4;" d="M37 512q0 234 131 387.5t338 153.5q177 0 274 -121v92h379v-1024h-379v92q-97 -121 -274 -121q-207 0 -338 153.5t-131 387.5zM242 1260q0 72 51 123t123 51t123 -51t51 -123t-51 -123.5t-123 -51.5t-123 51.5t-51 123.5zM416 512q0 -83 50 -138t132 -55t132 55t50 138 t-50 138t-132 55t-132 -55t-50 -138zM651 1260q0 72 51 123t123 51t123 -51t51 -123t-51 -123.5t-123 -51.5t-123 51.5t-51 123.5z" />
<glyph unicode="&#xe5;" d="M37 512q0 234 131 387.5t338 153.5q177 0 274 -121v92h379v-1024h-379v92q-97 -121 -274 -121q-207 0 -338 153.5t-131 387.5zM315 1372q0 124 86.5 205.5t219.5 81.5q136 0 220.5 -81t84.5 -206t-84.5 -206t-220.5 -81q-133 0 -219.5 81.5t-86.5 205.5zM416 512 q0 -83 50 -138t132 -55t132 55t50 138t-50 138t-132 55t-132 -55t-50 -138zM557 1372q0 -27 17 -44t47 -17q31 0 48 17t17 44t-17 44.5t-48 17.5q-30 0 -47 -17.5t-17 -44.5z" />
<glyph unicode="&#xe6;" horiz-adv-x="1888" d="M37 512q0 232 140 386.5t349 154.5q155 0 254 -99v70h338v-76q108 105 275 105q128 0 235 -70t168.5 -193.5t61.5 -273.5q0 -64 -17 -133h-676q55 -123 215 -123q114 0 189 78l235 -191q-146 -176 -379 -176q-187 0 -307 117v-88h-338v70q-99 -99 -254 -99 q-209 0 -349 154.5t-140 386.5zM416 512q0 -82 49.5 -133t132.5 -51t132.5 51t49.5 133t-49.5 133t-132.5 51t-132.5 -51t-49.5 -133zM1155 627h346q-36 123 -168 123q-60 0 -107 -30.5t-71 -92.5z" />
<glyph unicode="&#xe7;" horiz-adv-x="1075" d="M37 512q0 231 156.5 386t390.5 155q152 0 277.5 -73t193.5 -196l-320 -182q-23 39 -62.5 62.5t-88.5 23.5q-72 0 -120 -50t-48 -126t48 -126t120 -50q50 0 90 24.5t61 63.5l320 -184q-49 -89 -129.5 -153t-180.5 -93v-88q39 -16 74 -55t35 -103q0 -115 -125 -170.5 t-377 -40.5v234q195 -15 195 28q0 31 -109 41v150q-180 45 -290.5 187.5t-110.5 334.5z" />
<glyph unicode="&#xe8;" horiz-adv-x="1146" d="M37 508q0 233 155 389t390 156q233 0 383.5 -153.5t150.5 -383.5q0 -68 -16 -133h-680q49 -102 209 -102q96 0 174 65l248 -209q-77 -83 -191 -124.5t-244 -41.5q-131 0 -241 41.5t-183.5 114t-114 170.5t-40.5 211zM205 1454h430l164 -307h-357zM414 627h344 q-36 123 -166 123q-61 0 -108.5 -31t-69.5 -92z" />
<glyph unicode="&#xe9;" horiz-adv-x="1146" d="M37 508q0 233 155 389t390 156q233 0 383.5 -153.5t150.5 -383.5q0 -68 -16 -133h-680q49 -102 209 -102q96 0 174 65l248 -209q-77 -83 -191 -124.5t-244 -41.5q-131 0 -241 41.5t-183.5 114t-114 170.5t-40.5 211zM369 1147l163 307h431l-238 -307h-356zM414 627h344 q-36 123 -166 123q-61 0 -108.5 -31t-69.5 -92z" />
<glyph unicode="&#xea;" horiz-adv-x="1146" d="M37 508q0 233 155 389t390 156q233 0 383.5 -153.5t150.5 -383.5q0 -68 -16 -133h-680q49 -102 209 -102q96 0 174 65l248 -209q-77 -83 -191 -124.5t-244 -41.5q-131 0 -241 41.5t-183.5 114t-114 170.5t-40.5 211zM174 1126l217 328h385l217 -328h-317l-92 119 l-92 -119h-318zM414 627h344q-36 123 -166 123q-61 0 -108.5 -31t-69.5 -92z" />
<glyph unicode="&#xeb;" horiz-adv-x="1146" d="M37 508q0 233 155 389t390 156q233 0 383.5 -153.5t150.5 -383.5q0 -68 -16 -133h-680q49 -102 209 -102q96 0 174 65l248 -209q-77 -83 -191 -124.5t-244 -41.5q-131 0 -241 41.5t-183.5 114t-114 170.5t-40.5 211zM215 1280q0 72 51 123t123 51t123 -51t51 -123 t-51 -123t-123 -51t-123 51t-51 123zM414 627h344q-36 123 -166 123q-61 0 -108.5 -31t-69.5 -92zM625 1280q0 72 51 123t123 51t123 -51t51 -123t-51 -123t-123 -51t-123 51t-51 123z" />
<glyph unicode="&#xec;" horiz-adv-x="542" d="M-61 1434l155 -308h357l-82 308h-430zM82 0v1024h379v-1024h-379z" />
<glyph unicode="&#xed;" horiz-adv-x="542" d="M82 0v1024h379v-1024h-379zM82 1126h356l156 308h-430z" />
<glyph unicode="&#xee;" horiz-adv-x="542" d="M-98 1106l176 328h385l176 -328h-297l-72 108l-71 -108h-297zM82 0v1024h379v-1024h-379z" />
<glyph unicode="&#xef;" horiz-adv-x="542" d="M-78 1270q0 68 48 116t116 48t116 -48t48 -116t-48 -116t-116 -48t-116 48t-48 116zM82 0v1024h379v-1024h-379zM291 1270q0 68 48.5 116t115.5 48t115 -48t48 -116t-48 -116t-115 -48t-115.5 48t-48.5 116z" />
<glyph unicode="&#xf0;" horiz-adv-x="1150" d="M37 471q0 168 113 301.5t282 167.5l-51 74l-248 -78v287l80 24l-131 187h434l55 -74l293 92v-287l-121 -37l277 -370q94 -130 94 -287q0 -114 -45.5 -210.5t-121 -159.5t-172.5 -98.5t-200 -35.5q-148 0 -269.5 59.5t-195 176t-73.5 268.5zM416 463q0 -75 43.5 -116.5 t115.5 -41.5t116 41.5t44 116.5q0 50 -28 90q-49 59 -132 59q-72 0 -115.5 -40t-43.5 -109z" />
<glyph unicode="&#xf1;" horiz-adv-x="1177" d="M82 0v1024h379v-100q94 129 274 129q168 0 269.5 -116t101.5 -345v-592h-379v551q0 68 -33.5 102.5t-93.5 34.5q-68 0 -103.5 -43t-35.5 -119v-526h-379zM238 1133q0 99 23.5 170t61 108t87 52.5t100.5 9.5t102 -27q10 -4 29.5 -14t28.5 -13.5t22.5 -6t19.5 3t10.5 20 t4.5 39.5h246q0 -101 -23.5 -173t-61 -109t-88 -51.5t-101.5 -8t-103 27.5l-29 14.5t-28 13.5t-22 6t-19 -3.5t-10.5 -19.5t-4.5 -39h-245z" />
<glyph unicode="&#xf2;" horiz-adv-x="1175" d="M37 512q0 151 73.5 275.5t199.5 195t278 70.5t278 -70.5t199.5 -195t73.5 -275.5t-73.5 -275.5t-199.5 -195t-278 -70.5q-112 0 -213.5 41.5t-176 113.5t-118 172.5t-43.5 213.5zM199 1454l237 -307h357l-164 307h-430zM416 512q0 -79 48.5 -129.5t123.5 -50.5 t123.5 50.5t48.5 129.5t-48.5 129.5t-123.5 50.5t-123.5 -50.5t-48.5 -129.5z" />
<glyph unicode="&#xf3;" horiz-adv-x="1175" d="M37 512q0 151 73.5 275.5t199.5 195t278 70.5t278 -70.5t199.5 -195t73.5 -275.5t-73.5 -275.5t-199.5 -195t-278 -70.5q-112 0 -213.5 41.5t-176 113.5t-118 172.5t-43.5 213.5zM362 1147h357l237 307h-430zM416 512q0 -79 48.5 -129.5t123.5 -50.5t123.5 50.5 t48.5 129.5t-48.5 129.5t-123.5 50.5t-123.5 -50.5t-48.5 -129.5z" />
<glyph unicode="&#xf4;" horiz-adv-x="1175" d="M37 512q0 151 73.5 275.5t199.5 195t278 70.5t278 -70.5t199.5 -195t73.5 -275.5t-73.5 -275.5t-199.5 -195t-278 -70.5q-112 0 -213.5 41.5t-176 113.5t-118 172.5t-43.5 213.5zM168 1126l217 328h385l217 -328h-317l-92 119l-93 -119h-317zM416 512q0 -79 48.5 -129.5 t123.5 -50.5t123.5 50.5t48.5 129.5t-48.5 129.5t-123.5 50.5t-123.5 -50.5t-48.5 -129.5z" />
<glyph unicode="&#xf5;" horiz-adv-x="1175" d="M37 512q0 151 73.5 275.5t199.5 195t278 70.5t278 -70.5t199.5 -195t73.5 -275.5t-73.5 -275.5t-199.5 -195t-278 -70.5q-112 0 -213.5 41.5t-176 113.5t-118 172.5t-43.5 213.5zM221 1133q0 99 23.5 170t61 108t87.5 52.5t101 9.5t102 -27q10 -4 29.5 -14t28.5 -13.5 t22.5 -6t19.5 3t10.5 20t4.5 39.5h245q0 -101 -23.5 -173t-61 -109t-87.5 -51.5t-101 -8t-103 27.5l-29 14.5t-28 13.5t-22 6t-19 -3.5t-10.5 -19.5t-4.5 -39h-246zM416 512q0 -79 48.5 -129.5t123.5 -50.5t123.5 50.5t48.5 129.5t-48.5 129.5t-123.5 50.5t-123.5 -50.5 t-48.5 -129.5z" />
<glyph unicode="&#xf6;" horiz-adv-x="1175" d="M37 512q0 151 73.5 275.5t199.5 195t278 70.5t278 -70.5t199.5 -195t73.5 -275.5t-73.5 -275.5t-199.5 -195t-278 -70.5q-112 0 -213.5 41.5t-176 113.5t-118 172.5t-43.5 213.5zM209 1280q0 72 51 123t123 51t123 -51t51 -123t-51 -123t-123 -51t-123 51t-51 123z M416 512q0 -79 48.5 -129.5t123.5 -50.5t123.5 50.5t48.5 129.5t-48.5 129.5t-123.5 50.5t-123.5 -50.5t-48.5 -129.5zM618 1280q0 72 51.5 123t123.5 51t123 -51t51 -123t-51 -123t-123 -51t-123.5 51t-51.5 123z" />
<glyph unicode="&#xf7;" horiz-adv-x="1105" d="M61 532v369h983v-369h-983zM348 283q0 88 58.5 146t146.5 58t146.5 -58t58.5 -146t-58.5 -146.5t-146.5 -58.5t-146.5 58.5t-58.5 146.5zM348 1151q0 88 58.5 146.5t146.5 58.5t146.5 -58.5t58.5 -146.5t-58.5 -146.5t-146.5 -58.5t-146.5 58.5t-58.5 146.5z" />
<glyph unicode="&#xf8;" horiz-adv-x="1175" d="M37 512q0 151 73.5 275.5t199.5 195t278 70.5q153 0 289 -76l61 76l125 -72l-76 -92q152 -155 152 -377q0 -151 -73.5 -275.5t-199.5 -195t-278 -70.5q-151 0 -287 76l-61 -76l-125 70l75 94q-153 156 -153 377zM416 512q0 -42 16 -82l207 256q-24 6 -51 6 q-75 0 -123.5 -50.5t-48.5 -129.5zM539 338q24 -6 49 -6q75 0 123.5 50.5t48.5 129.5q0 35 -15 78z" />
<glyph unicode="&#xf9;" horiz-adv-x="1177" d="M72 432v592h379v-551q0 -68 33.5 -102.5t93.5 -34.5q68 0 103.5 43t35.5 119v526h379v-1024h-379v100q-94 -129 -275 -129q-168 0 -269 116t-101 345zM195 1434h430l163 -308h-356z" />
<glyph unicode="&#xfa;" horiz-adv-x="1177" d="M72 432v592h379v-551q0 -68 33.5 -102.5t93.5 -34.5q68 0 103.5 43t35.5 119v526h379v-1024h-379v100q-94 -129 -275 -129q-168 0 -269 116t-101 345zM358 1126l164 308h430l-237 -308h-357z" />
<glyph unicode="&#xfb;" horiz-adv-x="1177" d="M72 432v592h379v-551q0 -68 33.5 -102.5t93.5 -34.5q68 0 103.5 43t35.5 119v526h379v-1024h-379v100q-94 -129 -275 -129q-168 0 -269 116t-101 345zM164 1106l217 328h385l217 -328h-317l-93 119l-92 -119h-317z" />
<glyph unicode="&#xfc;" horiz-adv-x="1177" d="M72 432v592h379v-551q0 -68 33.5 -102.5t93.5 -34.5q68 0 103.5 43t35.5 119v526h379v-1024h-379v100q-94 -129 -275 -129q-168 0 -269 116t-101 345zM205 1260q0 72 51 123t123 51t123 -51t51 -123t-51 -123.5t-123 -51.5t-123 51.5t-51 123.5zM614 1260q0 72 51 123 t123 51t123.5 -51t51.5 -123t-51.5 -123.5t-123.5 -51.5t-123 51.5t-51 123.5z" />
<glyph unicode="&#xfd;" horiz-adv-x="1167" d="M0 1024h430l182 -547l125 547h430l-348 -1022q-76 -223 -236 -323t-421 -89v359q105 0 160 15t88 56zM371 1126l164 308h430l-238 -308h-356z" />
<glyph unicode="&#xfe;" d="M82 -410v1844h379v-502q97 121 274 121q207 0 338 -153.5t131 -387.5t-131 -387.5t-338 -153.5q-177 0 -274 121v-502h-379zM461 512q0 -83 50 -138t132 -55t132 55t50 138t-50 138t-132 55t-132 -55t-50 -138z" />
<glyph unicode="&#xff;" horiz-adv-x="1167" d="M0 1024h430l182 -547l125 547h430l-348 -1022q-76 -223 -236 -323t-421 -89v359q105 0 160 15t88 56zM217 1260q0 72 51 123t123 51t123 -51t51 -123t-51 -123.5t-123 -51.5t-123 51.5t-51 123.5zM627 1260q0 72 51 123t123 51t123 -51t51 -123t-51 -123.5t-123 -51.5 t-123 51.5t-51 123.5z" />
<glyph unicode="&#x152;" horiz-adv-x="1955" d="M51 717q0 208 101 380.5t275.5 270.5t383.5 98q123 0 223 -32h850v-373h-440v-156h389v-368h-389v-160h450v-377h-860q-103 -33 -223 -33q-209 0 -383.5 98.5t-275.5 271t-101 380.5zM461 717q0 -150 99 -249t251 -99q129 0 223 43v610q-94 43 -223 43q-152 0 -251 -99 t-99 -249z" />
<glyph unicode="&#x153;" horiz-adv-x="1863" d="M37 508q0 103 37 200t103 174t168 124t222 47q244 0 383 -162q149 162 389 162q138 0 251.5 -70t178 -193.5t64.5 -273.5q0 -68 -16 -133h-680q49 -102 209 -102q96 0 174 65l247 -209q-77 -83 -190.5 -124.5t-243.5 -41.5q-237 0 -383 162q-139 -162 -383 -162 q-119 0 -220.5 46t-168 122t-104 172t-37.5 197zM416 512q0 -79 48.5 -129.5t123.5 -50.5t123.5 50.5t48.5 129.5t-48.5 129.5t-123.5 50.5t-123.5 -50.5t-48.5 -129.5zM1130 627h345q-36 123 -166 123q-61 0 -109 -31t-70 -92z" />
<glyph unicode="&#x178;" horiz-adv-x="1380" d="M0 1434h455l235 -504l236 504h454l-485 -889v-545h-410v545zM311 1669q0 72 51 123t123 51t123 -51t51 -123t-51 -123t-123 -51t-123 51t-51 123zM721 1669q0 72 51 123t123 51t123 -51t51 -123t-51 -123t-123 -51t-123 51t-51 123z" />
<glyph unicode="&#x2c6;" horiz-adv-x="901" d="M41 1106l217 328h385l217 -328h-317l-92 119l-93 -119h-317z" />
<glyph unicode="&#x2dc;" horiz-adv-x="817" d="M41 1112q0 99 23.5 170t61 108t87.5 52.5t101 9.5t102 -27q11 -5 30 -14t28 -13t22 -6.5t19 3t10.5 20t4.5 39.5h246q0 -101 -23.5 -173t-61 -108.5t-88 -51t-101.5 -8t-103 27.5q-10 4 -29 14t-27.5 13.5t-21.5 6t-19 -3t-10.5 -20t-4.5 -39.5h-246z" />
<glyph unicode="&#x2000;" horiz-adv-x="942" />
<glyph unicode="&#x2001;" horiz-adv-x="1884" />
<glyph unicode="&#x2002;" horiz-adv-x="942" />
<glyph unicode="&#x2003;" horiz-adv-x="1884" />
<glyph unicode="&#x2004;" horiz-adv-x="628" />
<glyph unicode="&#x2005;" horiz-adv-x="471" />
<glyph unicode="&#x2006;" horiz-adv-x="314" />
<glyph unicode="&#x2007;" horiz-adv-x="314" />
<glyph unicode="&#x2008;" horiz-adv-x="235" />
<glyph unicode="&#x2009;" horiz-adv-x="376" />
<glyph unicode="&#x200a;" horiz-adv-x="104" />
<glyph unicode="&#x2010;" horiz-adv-x="1024" d="M102 444v357h820v-357h-820z" />
<glyph unicode="&#x2011;" horiz-adv-x="1024" d="M102 444v357h820v-357h-820z" />
<glyph unicode="&#x2012;" horiz-adv-x="1024" d="M102 444v357h820v-357h-820z" />
<glyph unicode="&#x2013;" horiz-adv-x="1310" d="M102 444v357h1106v-357h-1106z" />
<glyph unicode="&#x2014;" horiz-adv-x="1515" d="M102 444v357h1311v-357h-1311z" />
<glyph unicode="&#x2018;" horiz-adv-x="645" d="M72 748l184 686h307l-61 -686h-430z" />
<glyph unicode="&#x2019;" horiz-adv-x="645" d="M82 748l61 686h430l-184 -686h-307z" />
<glyph unicode="&#x201a;" horiz-adv-x="645" d="M82 -287l61 686h430l-184 -686h-307z" />
<glyph unicode="&#x201c;" horiz-adv-x="1157" d="M72 748l184 686h307l-61 -686h-430zM584 748l184 686h307l-61 -686h-430z" />
<glyph unicode="&#x201d;" horiz-adv-x="1157" d="M82 748l61 686h430l-184 -686h-307zM594 748l61 686h430l-184 -686h-307z" />
<glyph unicode="&#x201e;" horiz-adv-x="1157" d="M82 -287l61 686h430l-184 -686h-307zM594 -287l61 686h430l-184 -686h-307z" />
<glyph unicode="&#x2022;" horiz-adv-x="860" d="M61 719q0 152 108.5 259t262.5 107q152 0 259.5 -107t107.5 -259q0 -154 -107.5 -262.5t-259.5 -108.5q-154 0 -262.5 108.5t-108.5 262.5z" />
<glyph unicode="&#x2026;" horiz-adv-x="1679" d="M72 205q0 98 68.5 166.5t166.5 68.5t167 -68.5t69 -166.5t-69 -167t-167 -69t-166.5 69t-68.5 167zM604 205q0 98 69 166.5t167 68.5t166.5 -68.5t68.5 -166.5t-68.5 -167t-166.5 -69t-167 69t-69 167zM1137 205q0 98 68.5 166.5t166.5 68.5t167 -68.5t69 -166.5 t-69 -167t-167 -69t-166.5 69t-68.5 167z" />
<glyph unicode="&#x202f;" horiz-adv-x="376" />
<glyph unicode="&#x2039;" horiz-adv-x="751" d="M102 633l236 409h311l-235 -409l235 -410h-311z" />
<glyph unicode="&#x203a;" horiz-adv-x="751" d="M102 223l236 410l-236 409h312l235 -409l-235 -410h-312z" />
<glyph unicode="&#x205f;" horiz-adv-x="471" />
<glyph unicode="&#x20ac;" horiz-adv-x="1316" d="M20 504v172h123v41v37h-123v172h142q48 251 206.5 395.5t399.5 144.5q181 0 312 -83.5t206 -237.5l-342 -197q-65 121 -176 121q-132 0 -184 -143h286v-172h-317v-37v-41h317v-172h-284q52 -139 182 -139q114 0 178 139l350 -199q-162 -338 -528 -338 q-241 0 -398.5 143.5t-205.5 393.5h-144z" />
<glyph unicode="&#x2122;" horiz-adv-x="995" d="M61 1276v158h355v-158h-94v-252h-164v252h-97zM451 1024v410h157l84 -131l84 131h158v-410h-158v178l-76 -119h-16l-76 119v-178h-157z" />
<glyph unicode="&#x25fc;" horiz-adv-x="1024" d="M0 0v1024h1024v-1024h-1024z" />
<glyph unicode="&#xfb03;" horiz-adv-x="1761" d="M20 664v360h119q0 220 137 338.5t400 103.5v-340q-75 6 -116.5 -22.5t-41.5 -79.5h205v20q0 217 135 330t402 113q150 0 276 -33v-311q-137 20 -246 20q-188 0 -188 -119v-20h577v-1024h-379v664h-198v-664h-379v664h-205v-664h-379v664h-119z" />
<glyph unicode="&#xfb04;" horiz-adv-x="1761" d="M20 664v360h119q0 220 137 338.5t400 103.5v-340q-75 6 -116.5 -22.5t-41.5 -79.5h205v20q0 217 135 330t402 113q220 0 419 -33v-1454h-379v1171q-24 3 -51 3q-66 0 -106.5 -33t-40.5 -97v-20h117v-360h-117v-664h-379v664h-205v-664h-379v664h-119z" />
</font>
</defs>
</svg>
